What's new
Heroturko

This is a sample guest message. Register a free account today to become a member! Once signed in, you'll be able to participate on this site by adding your own topics and posts, as well as connect with other members through your own private inbox!

Guitar World - John Petrucci's Wild Stringdom

Prohibitive

Administrator
Administrator

Guitar World - John Petrucci's Wild Stringdom

Guitar World - John Petrucci's "Wild Stringdom"
DVD5 | English | VIDEO_TS | 720 x 480 | MPEG2 ~7491 kbps | 23.976 fps
AC-3 192 Kbps 48.0 KHz | 2 channels | 03:46:01 | 3.62 GB
Genre: eLearning Video / Guitar lesson
The DVD, which features Dream Theater's guitarist, offers more than 60 minutes of instructional lessons. This master lead guitarist shows you:



* Prog-style shred runs
* Melodic shapes
* Scale and arpeggio patterns
* Unusual fretboard paths

... and much more!

This DVD is an exclusive to the Guitar World Online Store. You won't find this anywhere else! Get your copy today!

About your instructor: Petrucci is best known as the Grammy-nominated guitarist and founding member of the progressive metal band Dream Theater, whose latest, self-titled album is available form Roadrunner Records. He is also the band's producer and main lyricist, as well as an original member of the acclaimed Liquid Tension Experiment with Tony Levin.

John is a long-standing veteran of Joe Satriani's prestigious G3 tours along with Steve Vai, Eric Johnson, and Paul Gilbert. John has received many notable awards in various guitar publications throughout the world, and has been featured in Guitar World magazine many times over the years, offering numerous outstanding lessons to its readers, including this collection of Wild Stringdom columns and other special articles and videos.

also You can find my other great:
https://rapu.world/search/?category_slug=&query=Guitar&language=7&age=&author=ParRus&search=1

General
Complete name : VTS_02_1.VOB
Format : MPEG-PS
File size : 609 MiB
Duration : 10 min 51 s
Overall bit rate mode : Variable
Overall bit rate : 7 839 kb/s

Video
ID : 224 (0xE0)
Format : MPEG Video
Format version : Version 2
Format profile :
Format settings : CustomMatrix / BVOP
Format settings, BVOP : Yes
Format settings, Matrix : Custom
Format settings, GOP : M=3, N=15
Duration : 10 min 51 s
Bit rate mode : Variable
Bit rate : 7 491 kb/s
Maximum bit rate : 9 000 kb/s
Width : 720 pixels
Height : 480 pixels
Display aspect ratio : 16:9
Frame rate : 23.976 (24000/1001) FPS
Standard : NTSC
Color space : YUV
Chroma subsampling : 4:2:0
Bit depth : 8 bits
Scan type : Progressive
Scan order : 2:3 Pulldown
Compression mode : Lossy
Bits/(Pixel*Frame) : 0.904
Time code of first frame : 01:00:00:00
Time code source : Group of pictures header
GOP, Open/Closed : Closed
Stream size : 582 MiB (96%)
Color primaries : BT.601 NTSC
Transfer characteristics : BT.601
Matrix coefficients : BT.601

Audio
ID : 189 (0xBD)-128 (0x80)
Format : AC-3
Format/Info : Audio Coding 3
Muxing mode : DVD-Video
Duration : 10 min 49 s
Bit rate mode : Constant
Bit rate : 192 kb/s
Channel(s) : 2 channels
Channel positions : Front: L R
Sampling rate : 48.0 kHz
Frame rate : 31.250 FPS (1536 SPF)
Bit depth : 16 bits
Compression mode : Lossy
Stream size : 14.9 MiB (2%)
Service kind : Complete Main

Menu

Screenshots

Guitar World - John Petrucci's Wild Stringdom

Guitar World - John Petrucci's Wild Stringdom

Guitar World - John Petrucci's Wild Stringdom
DOWNLOAD
(Buy premium account for maximum speed and resuming ability)






 
Top